#TITLE:Nottingham Lace;
#SUBTITLE:;
#ARTIST:Buckethead;
#TITLETRANSLIT:;
#SUBTITLETRANSLIT:;
#ARTISTTRANSLIT:;
#CREDIT:;
#BANNER:Lace-banner.png;
#BACKGROUND:Lace-bg.png;
#LYRICSPATH:;
#CDTITLE:;
#MUSIC:Buckethead-Nottingham_Lace.mp3;
#OFFSET:1.960;
#SAMPLESTART:131.303;
#SAMPLELENGTH:12.000;
#SELECTABLE:YES;
#BPMS:0.000=110.000;
#STOPS:95.000=0.260
;
#BGCHANGES:;
// cache tags:
#FIRSTBEAT:4.000;
#LASTBEAT:723.000;
#SONGFILENAME:Songs/Music V.I.P ^_^/Nottingham lace [Melonman]/nottingham.sm;
#HASMUSIC:1;
#HASBANNER:1;
#MUSICLENGTH:394.422;
// end cache tags

//---------------dance-single - ----------------
#NOTES:
     dance-single:
     :
     Challenge:
     13:
     0.819,1.000,0.477,0.545,1.000,1858.000,188.000,215.000,0.000,0.000:
0000
0000
0000
0000
,
1000
0000
0100
0000
0010
0000
0001
0000
0000
1000
0000
0000
0001
0000
0000
0010
0000
0000
0100
0000
0000
1000
0000
0000
0001
0000
0000
0010
0000
0000
0000
0000
0000
0100
0000
0000
0000
0000
0000
0000
0000
0000
1000
0000
0000
0001
0000
0000
,
0000
1000
0000
0000
0101
0000
0000
0000
0001
0010
0100
1000
0000
0000
1000
0000
,
0010
0100
0000
0000
0101
0000
0000
0000
0001
1000
0010
0100
0000
0000
0100
0001
,
0000
0010
0000
0000
0110
0000
0000
0000
0100
1000
0001
1000
0000
0000
1000
0100
,
0000
0010
0000
0000
0011
0000
0000
0000
1000
0100
0010
0001
0000
0000
0001
0100
,
0000
0010
0000
0000
1010
0000
0000
0000
1000
0001
0100
0010
0000
0000
0010
1000
,
0000
0100
0000
0000
0110
0000
0000
0000
0010
0001
1000
0001
0000
0000
0001
0010
,
0000
0100
0000
0000
1100
0000
0000
0000
1000
0001
0100
0001
0000
0000
0010
0100
,
1000
0100
1000
0100
1000
0100
1000
0000
0000
1001
0000
0000
0000
0000
0000
0000
0000
0000
0000
0000
0000
0000
0000
0000
,
1000
0000
0000
1000
0000
0000
1000
0000
0000
1100
0000
0000
0011
0000
0000
0000
,
0001
0000
0000
0001
0000
0000
0001
0000
0000
0011
0000
0000
1100
0000
0000
0000
,
2000
0000
0000
0001
0000
0000
3002
0000
0000
0000
0023
0000
0100
0000
0230
0000
,
2300
0000
0000
0001
0000
0000
3002
0000
0000
0000
0203
0000
0010
0000
0320
0000
,
2030
0000
0000
0001
0000
0000
3002
0000
0000
0000
2003
0000
0100
0000
3200
0000
,
0320
0000
0000
0000
0000
0000
0000
0000
0000
0001
0000
0000
0000
0000
0000
0000
0000
0000
0031
0000
0000
0000
0000
0000
1000
0000
0010
0000
0100
0000
0001
0000
1000
0000
0010
0000
0100
0000
0000
0000
0000
0000
0110
0000
0000
0000
0000
0000
,
0202
0000
0303
0022
0033
0220
0330
1100
,
2002
0000
3003
0202
0303
0220
0330
1010
,
2200
0000
3300
0022
0033
0220
0330
1100
,
2002
0000
3003
0202
0303
0022
0033
0110
,
0022
0000
0033
0202
0303
0220
0330
1010
,
2200
0000
3300
2200
3300
2002
3003
0101
,
0022
0000
0033
0202
0303
0220
0330
1010
,
1100
0011
1001
0110
,
1000
0100
0010
0001
0000
0000
1000
0001
0000
1000
0000
0000
0101
0000
0000
0000
,
0001
0010
0100
1000
0000
0000
1000
0100
0000
0010
0000
0000
0101
0000
0000
0000
,
0001
1000
0010
0100
0000
0000
0100
0001
0000
0010
0000
0000
0110
0000
0000
0000
,
0100
1000
0001
1000
0000
0000
1000
0100
0000
0010
0000
0000
0011
0000
0000
0000
,
1000
0100
0010
0001
0000
0000
0001
0100
0000
0010
0000
0000
1010
0000
0000
0000
,
1000
0001
0100
0010
0000
0000
0010
1000
0000
0100
0000
0000
0110
0000
0000
0000
,
0010
0001
1000
0001
0000
0000
0001
0010
0000
0100
0000
0000
1100
0000
0000
0000
,
1000
0000
0000
0001
0000
0000
1000
0000
0000
0001
0000
0000
0000
0000
0000
0000
0000
0000
0100
0000
0000
0001
0000
0000
0010
0000
0100
0000
1000
0000
0001
0000
0010
0000
0100
0000
1000
0000
0000
0000
0000
0000
0001
0000
0000
0000
0000
0000
,
0000
0000
0000
0000
0000
0000
0000
0000
1001
0000
0000
0001
0101
0000
0000
0001
,
0011
0010
0100
1000
0001
0000
1000
0000
0101
0000
0000
0100
0110
0000
0000
0010
,
1010
0000
1000
0000
0100
0010
0001
0000
0011
0000
0000
0010
0110
0000
0000
0100
,
0110
0010
0001
0001
0101
0001
0100
0010
,
1000
0000
0001
0000
0100
0000
0001
0000
1001
0000
0000
1000
1010
0000
0000
1000
,
1100
1000
0010
0000
1000
0010
0100
0001
0101
0000
0000
0100
0110
0000
0000
0010
,
1010
1000
0100
0000
0010
0001
1000
0001
1001
0000
0000
1000
1001
0000
0000
1000
,
1010
0010
0100
0000
0001
0010
0100
1000
1100
0000
0000
0001
1001
1000
0010
0100
,
0001
0000
0000
0010
0000
0000
0100
0000
0000
0000
0000
0000
1000
0000
0000
0000
0000
0000
1001
0000
0000
0000
0000
0000
1000
0000
0010
0000
0100
0000
0001
0000
1000
0000
0001
0000
0100
0000
0000
0001
0000
0000
0010
0000
0000
0100
0000
0000
,
1100
0000
0000
1100
0000
0000
1100
0000
0000
1100
0000
0000
1100
0000
0110
0000
,
0011
0000
0000
0011
0000
0000
0011
0000
0000
0011
0000
0000
0011
0000
0101
0000
,
0110
0000
0000
0110
0000
0000
0110
0000
0000
0110
0000
0000
0110
0000
1010
0000
,
1001
0000
0000
1001
0000
0000
1001
0000
1001
0000
0011
0000
0110
0000
1100
0000
,
0011
0000
0000
0011
0000
0000
0011
0000
0000
0011
0000
0000
0011
0000
0110
0000
,
1100
0000
0000
1100
0000
0000
1100
0000
0000
1100
0000
0000
1100
0000
1010
0000
,
0110
0000
0000
0110
0000
0000
0110
0000
0000
0110
0000
0000
0110
0000
0101
0000
,
1001
0000
0000
0000
0000
0000
0000
0000
0000
1001
0000
0000
0000
0000
0000
0000
0000
0000
1001
0000
0000
0000
0000
0000
1000
0000
0010
0000
0100
0000
0001
0000
1000
0000
0001
0000
0100
0000
0000
0001
0000
0000
0010
0000
0000
0000
0000
0000
,
0100
0000
1000
0001
0100
0001
1000
0010
0200
0000
0000
0000
0000
0000
0301
0010
,
0100
0000
1000
0001
0100
0001
0010
0100
2000
0000
0000
0000
0000
0000
3001
0010
,
0100
0000
1000
0010
0100
0001
0100
0001
0020
0000
0000
0000
0000
0000
0130
1000
,
0001
0000
1000
0010
0100
0001
1000
0001
0020
0000
0000
0000
0130
0000
1000
0001
,
0010
0000
0100
1000
0001
0100
0001
0010
0200
0000
0000
0000
0300
0000
1000
0001
,
0100
0000
0001
0010
0100
0010
0100
1000
0002
0000
0000
0000
0003
0000
1000
0010
,
0100
0000
0001
0010
0001
1000
0001
0010
0002
0000
0000
0000
0003
0000
0100
0010
,
1000
0000
0001
1000
0010
0001
0010
1000
0002
0000
0000
0000
0000
0000
0003
0000
,
1100
1100
0011
0011
0101
0110
1010
0110
,
0101
0000
0000
0000
0000
0000
0101
0000
0000
0000
0000
0000
0011
0000
0000
0000
0000
0000
0011
0000
0000
0000
0000
0000
0001
0000
1000
0000
0010
0000
0100
0000
0001
0000
1000
0000
0010
0000
0000
1000
0000
0000
0010
0000
0000
1000
0000
0000
,
1010
1010
0110
0110
0101
0011
0110
0011
,
0101
0000
0000
0000
0000
0000
0101
0000
0000
0000
0000
0000
0110
0000
0000
0000
0000
0000
0110
0000
0000
0000
0000
0000
1010
0000
1000
0000
0100
0000
0010
0000
0001
0000
1000
0000
0001
0000
0000
0010
0000
0000
0100
0000
0000
1000
0000
0000
,
1001
0000
0000
0000
0000
0000
0000
0000
1001
0000
0000
0000
0000
0000
0000
0000
0220
0330
0000
0000
0000
0000
0000
0000
0220
0330
0000
0000
0000
0000
0000
0000
1001
0000
0000
0000
0000
0000
0000
0000
0101
0000
0000
0000
0000
0000
0000
0000
0022
0033
0000
0000
0000
0000
0000
0000
0202
0303
0000
0000
0000
0000
0000
0000
,
1001
0000
0000
0000
0000
0000
0000
0000
0000
0000
0000
0000
0000
0000
0000
0000
0000
0000
0000
0000
0000
0000
0000
0000
1001
0000
0000
0000
0000
0000
0000
0000
0000
0000
0000
0000
0000
0000
0000
0000
0000
0000
0000
0000
0000
0000
0000
0000
0202
0000
0000
0303
0000
0000
0000
0000
0000
0000
0000
0000
0000
0000
0000
0000
0000
0000
0000
0000
0000
0000
0000
0000
0202
0000
0000
0303
0000
0000
0000
0000
0000
0000
0000
0000
0000
0000
0000
0000
0000
0000
0000
0000
0000
0000
0000
0000
1001
0000
0000
0000
0000
0000
0000
0000
1000
0000
0000
0000
0000
0000
0000
0000
0010
0000
0000
0000
0000
0000
0000
0000
0100
0000
0000
0000
0000
0000
0000
0000
0001
0000
0000
0000
0000
0000
0000
0000
0010
0000
0000
0000
0000
0000
0000
0000
0100
0000
0000
0000
0000
0000
0000
0000
0000
0000
0000
0000
1000
0000
0000
0000
0000
0000
0000
0000
0000
0000
0000
0000
0001
0000
0000
0000
0000
0000
0000
0000
0000
0000
0000
0000
1000
0000
0000
0000
0000
0000
0000
0000
0000
0000
0000
0000
,
1001
0000
0000
0000
0000
0000
0000
0000
1001
0000
0000
0000
0000
0000
0000
0000
2200
3300
0000
0000
0000
0000
0000
0000
2200
3300
0000
0000
0000
0000
0000
0000
0110
0000
0000
0000
0000
0000
0000
0000
0011
0000
0000
0000
0000
0000
0000
0000
0202
0303
0000
0000
0000
0000
0000
0000
0022
0033
0000
0000
0000
0000
0000
0000
,
0110
0000
0000
0000
0000
0000
0000
0000
0000
0000
0000
0000
0000
0000
0000
0000
0000
0000
0000
0000
0000
0000
0000
0000
0110
0000
0000
0000
0000
0000
0000
0000
0000
0000
0000
0000
0000
0000
0000
0000
0000
0000
0000
0000
0000
0000
0000
0000
2200
0000
0000
3300
0000
0000
0000
0000
0000
0000
0000
0000
0000
0000
0000
0000
0000
0000
0000
0000
0000
0000
0000
0000
2200
0000
0000
3300
0000
0000
0000
0000
0000
0000
0000
0000
0000
0000
0000
0000
0000
0000
0000
0000
0000
0000
0000
0000
1001
0000
0000
0000
0000
0000
0000
0000
1000
0000
0000
0000
0000
0000
0000
0000
0010
0000
0000
0000
0000
0000
0000
0000
0100
0000
0000
0000
0000
0000
0000
0000
0010
0000
0000
0000
0000
0000
0000
0000
1000
0000
0000
0000
0000
0000
0000
0000
0100
0000
0000
0000
0000
0000
0000
0000
0000
0000
0000
0000
0010
0000
0000
0000
0000
0000
0000
0000
0000
0000
0000
0000
0001
0000
0000
0000
0000
0000
0000
0000
0000
0000
0000
0000
1000
0000
0000
0000
0000
0000
0000
0000
0000
0000
0000
0000
,
0001
0010
0001
0010
0001
0100
1000
0100
,
0001
0000
1000
0000
0001
0000
1000
0000
0001
0010
0100
1000
0001
0010
0100
1000
,
0001
0100
0010
1000
0001
1000
0010
1000
,
0001
0000
0010
0000
0100
0000
1000
0000
0001
1000
0010
0100
0001
0010
0100
1000
,
0001
0010
0001
0010
0001
0100
1000
0100
,
0001
0000
1000
0000
0001
0000
1000
0000
0001
0010
0100
1000
0001
1000
0100
0010
,
0001
0100
0010
1000
0001
1000
0010
1000
,
0001
0000
1000
0000
0010
0000
1000
0000
0000
0100
0000
0000
0010
0000
0000
0001
0000
0000
0010
0000
0000
0100
0000
0000
1000
0000
0000
0010
0000
0000
0100
0000
0000
0001
0000
0000
0010
0000
0000
0100
0000
0000
1000
0000
0000
0001
0000
0000
,
2000
0000
0000
0000
0000
0000
0000
0000
3200
0000
0000
0000
0000
0000
0310
0001
,
2000
0000
0000
0000
0000
0000
3001
0100
0020
0000
0000
0000
0000
0000
1030
0001
,
2000
0000
0000
0000
3020
2030
0000
3010
,
2000
0000
0000
0000
0000
0000
0000
0000
0000
0000
0000
0000
0000
0000
3100
0010
,
0002
0000
0000
0000
0000
0000
0000
0000
2003
0000
0000
0000
0000
0000
3010
0100
,
0002
0000
0000
0000
0023
0000
0000
0130
2000
0000
0000
0000
0000
0000
3001
0100
,
0020
0000
1000
0000
2030
0000
0000
3100
,
0020
0000
0000
0000
0000
0000
0031
0000
1000
0000
0010
0000
1000
0100
0010
0001
,
2000
0000
0000
0000
0000
0000
3002
0000
0000
0000
0103
0000
0010
1000
0010
1000
,
0020
0000
0000
0000
0130
0000
0002
0000
0000
0000
0013
0000
0100
1000
0010
0100
,
0002
0000
0000
0000
1003
0000
0010
0000
1000
0000
0000
0100
0000
0000
0020
0000
,
0000
0000
0000
0000
0000
0000
0000
0000
0000
0000
0000
0000
0000
0000
0000
0000
0000
0000
0032
0000
0000
0000
0000
0000
0000
0000
0000
0000
0000
0000
1003
0000
0000
0010
0000
0000
1000
0000
0000
0000
0100
0000
0000
0000
0010
0000
0000
0000
,
0002
0000
0000
0000
0000
0000
2003
0000
0000
0000
3002
0000
0000
0000
1003
0010
,
0200
0000
0000
0000
0301
0000
0001
0000
0002
0000
0000
0000
0013
0000
0100
0010
,
0001
0100
0020
0000
1030
0100
0010
0001
,
2000
0000
0000
0000
0000
0000
0000
0000
3002
0000
0000
0203
0000
0000
0000
0000
,
0320
0000
0000
0000
0000
0000
0000
0000
0000
0000
0000
0000
1030
0000
0000
0000
0100
0000
0000
0000
0010
0000
0000
0000
0001
0000
0000
0010
0000
0000
0100
0000
0000
1000
0000
0000
0001
0000
0000
0100
0000
0000
0010
0000
0000
1000
0000
0000
,
0001
0010
0100
1000
0001
1000
0010
0100
0001
0100
0010
0100
0001
0010
0100
1000
0001
1000
0100
0010
0001
1000
0010
1000
,
0001
0000
0100
0000
0010
0000
2000
0000
0000
0000
0000
0000
3001
0000
0000
0000
0000
0000
0100
0000
0000
0010
0000
0000
1000
0000
0100
0000
0010
0000
0001
0000
1000
0000
0001
0000
1000
0000
0100
0000
0010
0000
0001
0000
1000
0000
0100
0000
,
0010
0000
0001
0000
1000
0000
0010
0000
1000
0000
0001
0000
0100
0000
0010
0000
0100
0000
0010
0000
0000
0000
0000
0000
0110
0000
0000
0000
0000
0000
0000
0000
0000
0000
0000
0000
0101
0000
0000
0000
0000
0000
0001
0000
0000
0010
0000
0000
,
0100
0000
0000
0000
1000
0000
0000
0000
0100
0000
0000
0000
1000
0000
0000
0000
0100
0000
0000
0000
0010
0000
0000
0000
0001
0000
0000
0010
0000
0000
0001
0000
0000
0000
0000
0000
1001
0000
0000
0000
0000
0000
1000
0000
0000
0000
0000
0000
,
1000
0010
0100
0001
0010
0100
2000
0000
3001
0000
0100
0001
0000
0000
0100
0000
,
0010
1000
0010
0100
0001
0010
0100
1000
0010
0100
0010
1000
0100
0010
0001
1000
,
0002
0000
0000
0000
1003
0010
1000
0010
0000
1000
0001
0000
0100
0010
0000
0000
,
1000
0000
0000
0000
0000
0000
0000
0000
0000
0000
0000
0000
0000
0000
0000
0000
0000
0000
0000
0000
0000
0000
0000
0000
0001
0000
0000
0000
0000
0000
0000
0000
0000
0000
0000
0000
1000
0000
0000
0000
0000
0000
0000
0000
0000
0000
0000
0000
0001
0000
0000
0000
0000
0000
0000
0000
0010
0000
0000
0000
0000
0000
0000
0000
0100
0000
0000
0000
0000
0000
0000
0000
1000
0000
0000
0000
0000
0000
0001
0000
0000
0000
0000
0000
0100
0000
0000
0000
0000
0000
0001
0000
0000
0000
0000
0000
0010
0000
0000
0000
0000
0000
0100
0000
0000
0000
0000
0000
1000
0000
0000
0000
0000
0000
0100
0000
0000
0000
0000
0000
0010
0000
0000
0000
0000
0000
0100
0000
0000
0000
0000
0000
1000
0000
0000
0000
0000
0000
0001
0000
0000
0000
0000
0000
0100
0000
0000
0000
0000
0000
0010
0000
0000
0000
0000
0000
1000
0000
0000
0000
0000
0000
0100
0000
0000
0000
0000
0000
0010
0000
0000
0000
0000
0000
0001
0000
0000
0000
0000
0000
1000
0000
0000
0000
0000
0000
0100
0000
0000
0000
0000
0000
,
1000
0000
0000
0100
0000
0000
0010
0000
0001
0000
0010
0000
0100
0000
1000
0000
0001
0000
0100
0000
0001
0000
1000
0000
0001
0000
1000
0000
0010
0000
0100
0000
0001
0000
1000
0000
0001
0000
0010
0000
0100
0000
1000
0000
0001
0000
1000
0000
,
0001
0000
0000
0000
0000
0000
0000
0000
0010
0000
0000
0000
0000
0000
0000
0000
0100
0000
0000
0000
0000
0000
0000
0000
1000
0000
0000
0000
0000
0000
0000
0000
0001
0000
0000
0000
0000
0000
0000
0000
0100
0000
0000
0000
0000
0000
0000
0000
0001
0000
0000
0000
0000
0000
0000
0000
0010
0000
0000
0000
0000
0000
0000
0000
0100
0000
0000
0000
0000
0000
0000
0000
1000
0000
0000
0000
0000
0000
0000
0000
0002
0000
0000
0000
0000
0000
0000
0000
0000
0000
0000
0000
0000
0000
0000
0000
0103
0000
0000
0000
0000
0000
0000
0000
0010
0000
0000
0000
0000
0000
0000
0000
1000
0000
0000
0000
0000
0000
0000
0000
0100
0000
0000
0000
0000
0000
0010
0000
0000
0000
0000
0000
0001
0000
0000
0000
0000
0000
1000
0000
0000
0000
0000
0000
0001
0000
0000
0000
0000
0000
1000
0000
0000
0000
0000
0000
0010
0000
0000
0000
0000
0000
0100
0000
0000
0000
0000
0000
0001
0000
0000
0000
0000
0000
0010
0000
0000
0000
0000
0000
0100
0000
0000
0000
0000
0000
0010
0000
0000
0000
0000
0000
,
0001
0000
0010
0000
0100
0000
1000
0000
0100
0000
0010
0000
0001
0000
0100
0000
0010
0000
1000
0000
0010
0000
0100
0000
0001
0000
0000
0010
0000
0000
0100
0000
0000
1000
0000
0000
0001
0000
0000
0010
0000
0000
0100
0000
0000
0010
0000
0000
,
0001
0010
0100
1000
0010
0100
0010
1000
0100
0010
0001
1000
0001
0100
0001
1000
0100
1000
0001
0010
0100
1000
0001
0010
,
0100
0000
1000
0000
0010
0000
0100
0000
0010
0000
1000
0000
0100
0000
1000
0000
0001
0000
0200
0000
0000
0000
0000
0000
0000
0000
0000
0000
0000
0000
0300
0000
0000
0010
0000
0000
1000
0000
0000
0010
0000
0000
0100
0000
0000
0001
0000
0000
,
0010
0000
0000
0001
0000
0000
0010
0000
0100
0000
0010
0000
0001
0000
0100
0000
0010
0000
1000
0000
0001
0000
1000
0000
0010
0000
1000
0000
0100
0000
1000
0000
0001
0000
0010
0000
0001
0000
0100
0000
0001
0000
0010
0000
0100
0000
1000
0000
,
0001
0100
0010
1000
0100
0010
0001
1000
0001
0100
0001
0010
0100
1000
0010
0100
0010
1000
0100
0010
0001
1000
0001
0100
,
0001
0000
0000
0000
0000
0000
0000
0000
0100
0000
0000
0000
0000
0000
0000
0000
0001
0000
0000
0000
0000
0000
0000
0000
0100
0000
0000
0000
0000
0000
0000
0000
0001
0000
0000
0000
0000
0000
0000
0000
0100
0000
0000
0000
0000
0000
0000
0000
0001
0000
0000
0000
0000
0000
0010
0000
0000
0000
0000
0000
0100
0000
0000
0000
0000
0000
1000
0000
0000
0000
0000
0000
0001
0000
0000
0000
0000
0000
0010
0000
0000
0000
0000
0000
0100
0000
0000
0000
0000
0000
1000
0000
0000
0000
0000
0000
0001
0000
0000
0000
0000
0000
0100
0000
0000
0000
0000
0000
0001
0000
0000
0000
0000
0000
0010
0000
0000
0000
0000
0000
0100
0000
0000
0000
0000
0000
1000
0000
0000
0000
0000
0000
0010
0000
0000
0000
0000
0000
0100
0000
0000
0000
0000
0000
0001
0000
0000
0000
0000
0000
1000
0000
0000
0000
0000
0000
0010
0000
0000
0000
0000
0000
0100
0000
0000
0000
0000
0000
0001
0000
0000
0000
0000
0000
1000
0000
0000
0000
0000
0000
0001
0000
0000
0000
0000
0000
0010
0000
0000
0000
0000
0000
,
0100
0000
0000
0000
0000
0000
1000
0000
0000
0000
0000
0000
0010
0000
0000
0000
0000
0000
1000
0000
0000
0000
0000
0000
0010
0000
0000
0000
0000
0000
0100
0000
0000
0000
0000
0000
0001
0000
0000
0000
0000
0000
0010
0000
0000
0000
0000
0000
0100
0000
0000
0000
0000
0000
0010
0000
0000
0000
0000
0000
0001
0000
0000
0000
0000
0000
1000
0000
0000
0000
0000
0000
0010
0000
0000
0000
0000
0000
0100
0000
0000
0000
0000
0000
0010
0000
0000
0000
0000
0000
1000
0000
0000
0000
0000
0000
0100
0000
0000
0000
0000
0000
0000
0000
0010
0000
0000
0000
0000
0000
0000
0000
0001
0000
0000
0000
0000
0000
0000
0000
1000
0000
0000
0000
0000
0000
0000
0000
0100
0000
0000
0000
0000
0000
0000
0000
0010
0000
0000
0000
0000
0000
0000
0000
0001
0000
0000
0000
0000
0000
0000
0000
0010
0000
0000
0000
0000
0000
0000
0000
0100
0000
0000
0000
0000
0000
0000
0000
1000
0000
0000
0000
0000
0000
0000
0000
0001
0000
0000
0000
0000
0000
0000
0000
0010
0000
0000
0000
0000
0000
0000
0000
,
0100
0000
0000
0000
0000
0000
0000
0000
1000
0000
0000
0000
0000
0000
0000
0000
0100
0000
0000
0000
0000
0000
0000
0000
1000
0000
0000
0000
0000
0000
0000
0000
0100
0000
0000
0000
0000
0000
0000
0000
1000
0000
0000
0000
0000
0000
0000
0000
0100
0000
0000
0000
0000
0000
0010
0000
0000
0000
0000
0000
0001
0000
0000
0000
0000
0000
1000
0000
0000
0000
0000
0000
0100
0000
0000
0000
0000
0000
0010
0000
0000
0000
0000
0000
0001
0000
0000
0000
0000
0000
1000
0000
0000
0000
0000
0000
0001
0000
0000
0000
0000
0000
0000
0000
0010
0000
0000
0000
0000
0000
0000
0000
0100
0000
0000
0000
0000
0000
0000
0000
1000
0000
0000
0000
0000
0000
0000
0000
0001
0000
0000
0000
0000
0000
0000
0000
0010
0000
0000
0000
0000
0000
0000
0000
0100
0000
0000
0000
0000
0000
0000
0000
1000
0000
0000
0000
0000
0000
0000
0000
0010
0000
0000
0000
0000
0000
0000
0000
0100
0000
0000
0000
0000
0000
0000
0000
0010
0000
0000
0000
0000
0000
0000
0000
1000
0000
0000
0000
0000
0000
0000
0000
,
0001
0000
1000
0000
0010
0000
0100
0000
0001
0000
0010
0000
0100
0000
1000
0000
0100
0000
0010
0000
0001
0000
1000
0000
0002
0000
0000
0000
0000
0000
1000
0000
0000
0000
0000
0000
1003
0000
0000
0000
0000
0000
1000
0000
0000
0001
0000
0000
,
1000
0100
0010
0002
0000
1003
0000
0001
,
1000
0000
0100
0000
1000
0000
0002
0000
0000
0000
0203
0000
0000
0000
0301
0010
,
0100
1000
0001
2000
0000
3020
0000
0230
,
0000
0301
0010
0200
0000
0000
1300
0001
,
2000
0000
0001
3200
0000
0320
0000
1030
,
0100
0000
0010
0000
0001
0000
2000
0000
0000
0000
3002
0000
0000
0000
0103
0010
,
0200
0000
0310
2000
0000
3001
0010
0200
,
0000
0000
0300
0000
0200
0000
0000
0000
1300
0000
0001
0000
1000
0000
0010
0100
,
0001
1000
0001
0100
0010
2000
0000
3100
,
0010
0000
0001
0000
1000
0000
0002
0000
0000
0000
2003
0000
0000
0000
3010
0100
,
0001
0100
0010
2000
0000
3200
0020
0000
,
0000
0000
0000
0000
0000
0000
0330
0000
0000
0000
0000
0000
0001
0000
0010
0000
0100
0000
1000
0000
0001
0000
0010
0000
0100
0000
1000
0000
0010
0000
0100
0000
0001
0000
1000
0000
0020
0000
0000
0000
0000
0000
1030
0000
0000
0001
0000
0000
,
0100
0001
1000
0200
0000
0320
0000
0031
,
0001
1000
0020
0000
0230
0000
0302
0000
,
0013
0100
1000
0002
0000
0013
0100
2000
,
0000
0000
0000
0000
0000
0000
0000
0000
0000
0000
0000
0000
0000
0000
0000
0000
0000
0000
0000
0000
0000
0000
0000
0000
3001
0000
0000
0010
0000
0000
0100
0000
0000
0000
0000
0000
1000
0000
0010
0000
0100
0000
0001
0000
0000
0000
0000
0000
,
1001
0000
1000
0020
0000
0230
0000
0302
,
0000
0000
0103
0000
0010
0000
1000
0001
0100
0000
0010
0000
1000
0000
0010
0000
,
0200
0000
0000
0000
0000
0000
0301
0000
0000
0010
0000
0000
0100
0000
1000
0000
0100
0000
0020
0000
0000
0031
0010
0000
,
0100
0000
1000
0000
0010
0000
0100
0000
0010
0000
1000
0000
0100
0000
0010
0000
0001
0000
1000
0000
0100
0000
1000
0000
0001
0000
0100
0000
0001
0000
0010
0000
0100
0000
1000
0000
0001
0000
0000
0000
0000
0000
1000
0000
0000
0010
0000
0000
,
0100
0001
0010
0200
0000
2300
0000
3001
,
0002
0000
0000
0000
1003
0000
0010
0100
0002
0000
0000
0000
0013
0000
0001
0000
,
1000
0000
0000
0000
0000
0000
0001
0000
0000
0000
0000
0000
0100
0000
0000
0000
0000
0000
0001
0000
0000
0000
0000
0000
0010
0000
0000
0000
0000
0000
0100
0000
0000
1000
0000
0000
0001
0000
0000
0010
0000
0000
0100
0000
1000
0000
0001
0000
,
1000
0010
0100
0001
1000
0010
0100
0001
0010
0100
1000
0001
1000
0001
0100
0001
0010
0100
1000
0100
0010
0001
1000
0001
0100
0001
0010
0100
1000
0001
0010
0100
,
1000
0001
1000
0002
0000
0013
0001
2000
,
0000
0000
3010
0000
0100
0000
0001
0000
2000
0000
0000
0000
3100
0000
0010
0001
,
0010
0100
1000
0200
0000
0310
0001
1000
,
0020
0000
0000
0000
0000
0000
0230
0000
0000
0000
0000
0000
0301
0000
0000
0101
0000
0000
1001
0000
0000
0001
0010
0100
,
1000
0100
1000
0001
0100
0001
1000
0010
0100
0001
0010
0100
1000
0001
0010
0100
1000
0100
0010
0100
1000
0010
0100
0001
0010
0001
1000
0010
1000
0100
0010
0001
,
0010
0001
0100
0001
1000
0100
1000
0010
0100
0001
0010
0100
0010
0100
1000
0100
0010
0001
1000
0010
0100
0001
0100
0001
1000
0100
1000
0001
0010
0100
1000
0001
,
1000
0010
0100
0010
0100
0001
0010
0100
0010
0001
0010
0100
1000
0001
0100
0001
1000
0010
0100
0001
0100
0001
0100
0010
0100
0001
0010
0100
1000
0100
0010
0100
,
2000
0000
0000
0000
0000
0000
0000
0000
0000
0000
0000
0000
0000
0000
0000
0000
0000
0000
3001
0000
0000
0010
0000
0000
0100
0000
0000
0000
0000
0000
1000
0000
0000
0000
0001
0000
1000
0000
0000
0000
0001
0000
1000
0000
0000
0000
0001
0000
,
1000
0000
0001
0000
0010
0000
0100
0000
0000
1000
0000
0000
0010
0000
0100
0000
0001
0000
2000
0000
0000
0000
0000
0000
0000
0000
0000
0000
0000
0000
3001
0000
0000
0000
0000
0000
0100
0000
0010
0000
1000
0000
0001
0000
0000
0000
0000
0000
,
1000
0010
0100
0020
0000
0000
0000
0000
0000
0000
0000
0000
0130
0000
0001
0000
0010
0000
0100
0000
1000
0000
0001
0000
,
1000
0000
0100
0010
0001
1000
0001
0100
0001
1000
0001
1000
0000
0100
0010
0001
,
1000
0001
0010
0100
1000
0100
0010
0001
1000
0010
0100
0001
0100
0010
1000
0100
0010
0100
1000
0001
0010
0100
0010
0001
1000
0001
0100
0001
2000
0000
0000
0000
,
3100
0010
0001
2000
0000
3020
0000
0000
,
0130
0000
0001
0000
1000
0000
0100
0000
0010
0000
0002
0000
0000
0000
1003
0010
,
0100
0001
0010
0200
0000
2300
0000
3002
,
0000
0000
0000
0000
0000
0000
0103
0000
0000
0010
0000
0000
1000
0000
0000
0000
0000
0000
0001
0000
0000
0000
1000
0000
0000
0000
0001
0000
0000
0000
2000
0000
0000
0000
0000
0000
0001
0000
0000
0000
0000
0000
3001
0000
0000
0000
0000
0000
,
0020
0000
0130
1000
0001
1000
0010
0200
,
0000
0301
0010
0100
2000
0000
0000
0000
,
3002
0000
0013
0100
1000
0001
0000
1001
,
0000
0000
1000
0001
1000
0000
0000
0000
1000
0100
0010
0001
1000
0001
0100
0010
,
1000
0010
0100
0001
1000
0010
0100
0001
0010
0200
0000
0000
0000
0000
0000
0000
0000
0000
0300
0000
1000
0000
0100
0000
,
0010
0000
0000
0000
0000
0000
0000
0000
0000
0000
0000
0000
0000
0000
0000
0000
0001
0000
0000
0000
0000
0000
0000
0000
0000
0000
0000
0000
0000
0000
1000
0000
0000
0000
0000
0000
0100
0000
0000
0000
0000
0000
0010
0000
0000
0000
0000
0000
0100
0000
0000
0000
0000
0000
1000
0000
0000
0000
0000
0000
0001
0000
0000
0000
0000
0000
0010
0000
0000
0000
0000
0000
0100
0000
0000
0000
0000
0000
1000
0000
0000
0000
0000
0000
0001
0000
0000
0000
0000
0000
0010
0000
0000
0000
0000
0000
0100
0000
0000
0000
0000
0000
1000
0000
0000
0000
0000
0000
0100
0000
0000
0000
0000
0000
1000
0000
0000
0000
0000
0000
0010
0000
0000
0000
0000
0000
1000
0000
0000
0000
0000
0000
0001
0000
0000
0000
0000
0000
0010
0000
0000
0000
0000
0000
0001
0000
0000
0000
0000
0000
0010
0000
0000
0000
0000
0000
0100
0000
0000
0000
0000
0000
1000
0000
0000
0000
0000
0000
0001
0000
0000
0000
0000
0000
0000
0000
0000
0000
0000
0000
1000
0000
0000
0000
0000
0000
0000
0000
0000
0000
0000
0000
,
0200
0000
0000
0000
0000
0000
0000
0000
0000
0000
0000
0000
0310
0000
0001
0000
0010
0000
0200
0000
0000
0000
0000
0000
0000
0000
0000
0000
0000
0000
1300
0000
0000
0100
0000
0000
0010
0000
0000
0001
0000
0000
0010
0000
0000
0100
0000
0000
,
2000
0000
0000
0000
3001
0010
0100
1000
0002
0000
0000
0000
0000
1000
0103
0000
,
2000
0000
0000
0000
3001
0010
0100
1000
0001
0000
2000
0000
0000
0000
3100
0010
,
0002
0000
0000
0000
0000
0000
1003
0010
0200
0000
0000
0000
0000
0000
0000
0000
,
0302
0000
0000
1003
0200
0000
0000
1300
,
0002
0000
0000
0000
0000
0000
0000
0000
0000
0000
0000
0000
0000
0000
1003
0001
,
0100
0001
0010
0200
0000
1000
0000
1000
,
0300
0000
0000
0000
1000
0000
0010
0000
0200
0000
0000
0000
0300
0000
0001
1000
,
0001
0000
0000
0000
0010
0000
0000
0000
0100
0000
0000
0000
1000
0000
0000
0000
0000
0000
0000
0000
1000
0000
0000
0100
0000
0000
0010
0000
0000
0001
0000
0000
,
2002
0000
0000
3003
,
2200
0000
0000
0300
0020
0000
3030
0000
,
1000
0000
0000
0100
0000
0000
0010
0000
0000
0001
0000
0000
0010
0000
0000
0100
0000
0000
1000
0000
0000
0001
0000
0000
1000
0000
0000
0010
0000
0000
0100
0000
,
0002
2003
3002
0000
,
0000
0000
0000
0000
0003
0000
1000
0001
0100
0001
0010
0100
1000
0100
0010
0001
,
1000
0000
0000
0000
1000
0100
0020
0000
0000
0000
0031
0000
0020
0000
0000
0000
,
0130
1000
0001
0000
1000
0000
0010
0000
0200
0000
0000
0000
0000
0000
0301
0000
,
0010
0000
0100
0000
1000
0000
0100
0000
0010
0000
0001
0000
1000
0000
0000
0001
0000
0000
0100
0000
0000
0010
0000
0000
,
2000
0000
0000
0000
3200
0000
0000
0000
0000
0000
0310
0001
1000
0001
0100
0001
,
1000
0000
0100
0000
0010
0000
0001
0000
1000
0000
0000
0000
0010
0100
0001
0010
0100
0010
0100
1000
0100
1000
0010
0100
0010
0001
0010
0100
1000
0100
0010
0100
,
1000
0100
1000
0001
0100
0001
0010
0100
0010
0001
0010
1000
0010
0001
0010
0001
1000
0010
1000
0100
0010
0100
1000
0010
0100
0001
0010
0100
1000
0010
0100
0010
,
1000
0100
0010
0100
1000
0001
0010
0100
1000
0001
0010
0100
1000
0100
0010
0001
1000
0010
0100
0001
0010
0100
1000
0100
0010
0001
1000
0100
0010
0001
1000
0001
,
1000
0100
0010
0001
1000
0100
0010
0001
0010
0100
1000
0001
0010
0100
1000
0010
0100
0001
1000
0010
0100
0001
0010
0100
1000
0001
0100
0001
1000
0000
0001
0000
,
0100
0000
0110
0110
0000
0000
0101
0101
,
0000
0000
0000
0000
0011
0000
0011
0000
0001
0010
0100
1000
0001
0010
0100
1000
,
1100
2002
0000
0000
0000
0000
0000
0000
,
0000
0000
0000
3003
;
